Loading...
Error

Киллер по вызову / Lucky Day (Роджер Эвери / Roger Avary) [2019 г., боевик, триллер, криминал, BDRip 1080p] VO (Сэм Голд) + Original (Eng)

Статистика раздачи
Размер:  7,79 GB   |    Зарегистрирован:  1 месяц 10 дней   |    Скачан:  14 раз

Полного источника не было: 29 минут

Сидов:  0  |  0 KB/s  ]   Личеров:  0  |  0 KB/s  ]

* - сиды/пиры с внешних источников

   
 
Автор Сообщение

90ytr90 

07-Дек-2019 20:47

Киллер по вызову / Lucky Day
«From the Co-Writer of PULP FICTION and a Producer of TRUE ROMANCE»

Страна: Франция, Канада
Год выпуска: 2019
Жанр: боевик, триллер, криминал
Продолжительность: 01:39:14
Озвучивание:
  • любительское (одноголосое закадровое) [Сэм Голд]
  • оригинальная звуковая дорожка [английский]

Режиссёр: Роджер Эвери / Roger Avary

В ролях:
Люк Брейси, Нина Добрев, Криспин Гловер, Элла Райан Куинн, Кле Беннетт, Клифтон Коллинз мл., Дэвид Хьюлетт, Надя Фарес, Томер Сисле, Марк Дакаскос


Сюжет фильма:
В первый же день после освобождения из тюрьмы взломщик сейфов Ред и его подруга становятся мишенью киллера. Сея вокруг себя хаос, киллер шутит с акцентом, что мстит за убитую собаку. Не спеша уничтожать жертву, он явно ведет свою игру, истинной целью которой может быть вовсе не Ред.

  • Дата мировой премьеры: 18 сентября 2019
  • Дата российской премьеры: 16 января 2020
             
Качество видео: BDRip 1080p
Формат: MKV
Видео: AVC, 1920x800 (2.40:1), 9527 kbps, 23.976 (24000/1001) fps, 0.259 bit/pixel
Аудио #1: AC3, 192 kbps, 2 ch, 48 kHz, VO [Сэм Голд]
Аудио #2: DTS, 1509 kbps, 6 ch, 48 kHz, Original [English]
Навигация по главам: есть (16)
General 
Unique ID : 274166632072449103138236749475867612593 (0xCE429298EDD903357FE6A1AC492155B1)
Complete name : C:\KINOLucky.Day.2019.1080p.BDRip.mkv
Format : Matroska
Format version : Version 4
File size : 7.79 GiB
Duration : 1 h 39 min
Overall bit rate : 11.2 Mb/s
Encoded date : UTC 2019-12-07 18:54:11
Writing application : mkvmerge v38.0.0 ('The Silent Type') 64-bit
Writing library : libebml v1.3.9 + libmatroska v1.5.2
Cover : Yes
Attachments : cover.jpg

Video
ID : 1
Format : AVC
Format/Info : Advanced Video Codec
Format profile : High@L4.1
Format settings : CABAC / 5 Ref Frames
Format settings, CABAC : Yes
Format settings, Reference frames : 5 frames
Codec ID : V_MPEG4/ISO/AVC
Duration : 1 h 39 min
Bit rate : 9 527 kb/s
Width : 1 920 pixels
Height : 800 pixels
Display aspect ratio : 2.40:1
Frame rate mode : Constant
Frame rate : 23.976 (24000/1001) FPS
Color space : YUV
Chroma subsampling : 4:2:0
Bit depth : 8 bits
Scan type : Progressive
Bits/(Pixel*Frame) : 0.259
Stream size : 6.60 GiB (85%)
Title : BDRip.1080p by Silverok
Writing library : x264 core 158 r2988 7817004
Encoding settings : cabac=1 / ref=5 / deblock=1:-3:-3 / analyse=0x3:0x113 / me=umh / subme=8 / psy=1 / psy_rd=1.00:0.00 / mixed_ref=1 / me_range=16 / chroma_me=1 / trellis=1 / 8x8dct=1 / cqm=0 / deadzone=21,11 / fast_pskip=1 / chroma_qp_offset=-2 / threads=25 / lookahead_threads=4 / sliced_threads=0 / nr=0 / decimate=1 / interlaced=0 / bluray_compat=0 / constrained_intra=0 / bframes=3 / b_pyramid=2 / b_adapt=1 / b_bias=0 / direct=3 / weightb=1 / open_gop=0 / weightp=2 / keyint=250 / keyint_min=23 / scenecut=40 / intra_refresh=0 / rc_lookahead=50 / rc=2pass / mbtree=1 / bitrate=9527 / ratetol=1.0 / qcomp=0.60 / qpmin=0 / qpmax=69 / qpstep=4 / cplxblur=20.0 / qblur=0.5 / ip_ratio=1.40 / aq=1:1.00
Default : Yes
Forced : No

Audio #1
ID : 2
Format : AC-3
Format/Info : Audio Coding 3
Commercial name : Dolby Digital
Codec ID : A_AC3
Duration : 1 h 39 min
Bit rate mode : Constant
Bit rate : 192 kb/s
Channel(s) : 2 channels
Channel layout : L R
Sampling rate : 48.0 kHz
Frame rate : 31.250 FPS (1536 SPF)
Compression mode : Lossy
Stream size : 136 MiB (2%)
Title : VO, Сэм Голд
Language : Russian
Service kind : Complete Main
Default : Yes
Forced : No

Audio #2
ID : 3
Format : DTS
Format/Info : Digital Theater Systems
Codec ID : A_DTS
Duration : 1 h 39 min
Bit rate mode : Constant
Bit rate : 1 509 kb/s
Channel(s) : 6 channels
Channel layout : C L R Ls Rs LFE
Sampling rate : 48.0 kHz
Frame rate : 93.750 FPS (512 SPF)
Bit depth : 24 bits
Compression mode : Lossy
Stream size : 1.05 GiB (13%)
Language : English
Default : No
Forced : No

Menu
00:00:00.000 : en:00:00:00.000
00:06:02.070 : en:00:06:02.070
00:10:49.649 : en:00:10:49.649
00:18:16.846 : en:00:18:16.846
00:23:41.837 : en:00:23:41.837
00:30:44.551 : en:00:30:44.551
00:37:38.131 : en:00:37:38.131
00:43:59.554 : en:00:43:59.554
00:48:35.412 : en:00:48:35.412
00:53:35.337 : en:00:53:35.337
01:00:05.519 : en:01:00:05.519
01:07:10.443 : en:01:07:10.443
01:11:08.222 : en:01:11:08.222
01:17:25.140 : en:01:17:25.140
01:24:48.583 : en:01:24:48.583
01:29:50.594 : en:01:29:50.594


pic pic pic pic pic pic pic pic

Этот торрент недоступен для скачивания без регистрации, однако доступен по публичной magnet-ссылке (источники с публичных трекеров). Перед использованием ссылки прочтите, пожалуйста Пользовательское соглашение, а также как можно дольше оставайтесь на раздаче! Для того, чтобы скачать сам торрент-файл (который видит больше источников), а также для того, чтобы поблагодарить релизера, вам необходимо зарегистрироваться. Если регистрироваться лень - вы можете также попробовать скачать релиз по нашим партнерским ссылкам ниже. Кроме того, зарегистрированным пользователям не показывается всплывающая реклама при скачивании.

[underver.se].t153772.torrent
Трекер: Зарегистрирован   [ 07.12.2019 20:47 ]  

Статус: T временная (by 90ytr90 at 07.12.2019 20:53)
Поблагодарили: пока никто не поблагодарил...
Тип торрента: публичный - доступные источники с открытых трекеров: 
Размер: 7,79 GB (занимает 1,78 DVDR, для записи нужно 2 болванки DVDR/RW)
 
 
Похожие темы
Форум Тема Автор Торрент Отв. Посл. сооб.
T Зарубежное кино [DVDRip, Low-Res HDRip, и т.д.] Киллер по вызову / Lucky Day (Роджер Эвери) [2019 г., боевик, триллер, криминал, WEB-DLRip] MVO (Синема УС) makkol
49 | 1

0 | 429

27

12.10.2019 14:52

T Зарубежное кино [HDDVDRip / BDRip / WEB-DL / HDTV 1080/720р] Киллер по вызову / Lucky Day (Роджер Эвери) [2019 г., боевик, триллер, криминал, WEB-DL 720p] MVO (Синема УС) makkol
9 | 1

0 | 370

13

12.10.2019 14:55


Яндекс.Метрика powered by Sphinx


В Н И М А Н И Е
Сайт не распространяет и не хранит электронные версии произведений, а лишь бесплатно и без коммерческой выгоды (не требуя взамен платы,
SMS и т.д.) предоставляет доступ к создаваемому пользователями каталогу ссылок на торрент-файлы, которые содержат только списки хеш-сумм.
Убедительная просьба с жалобами обращаться напрямую к пользователю, разместившему торрент файл.

Вверх